The Final Wish 2018 720p WEB-DL x264 [MW Torrent Free Download

Seeders : 975   &   Leechers : 699      12-02-2019 (4 days)
The Final Wish 2018 720p WEB-DL x264 [MW Torrent Download
Added: ago by moviezworldz ***** in Movies   799.8 MB   Hits : 15
Info Hash: 0D9FD762160FA91DBE727D09B1F9AA6A4CA6FB25 Download
The Final Wish 2018 720p WEB-DL x264 [MW Torrent Download

Anonymous and Direct Download movies , software , shows...

Fast Safe Anonymous
movies, software, shows...
The Final Wish
N/A   .   95 min   7.0/10
Director : Timothy Woodward Jr.  
Tags: The  Final  Wish  2018  720p  WEB-DL  

Released:
24 Jan 2019
After the death of his father, Aaron returns home to help his grief-stricken mother and to confront his past. Going through his dad's belongings, he comes across a mysterious item that is more than it seems.

Torrent Description







General
Format : Matroska
Format version : Version 4
File size : 800 MiB
Duration : 1 h 35 min
Overall bit rate : 1 166 kb/s

Video
ID : 1
Format : AVC
Format/Info : Advanced Video Codec
Format profile : [email protected]
Format settings : CABAC / 4 Ref Frames
Format settings, CABAC : Yes
Format settings, RefFrames : 4 frames
Codec ID : V_MPEG4/ISO/AVC
Duration : 1 h 35 min
Bit rate : 1 050 kb/s
Width : 1 280 pixels
Height : 534 pixels
Display aspect ratio : 2.40:1
Frame rate mode : Constant
Frame rate : 23.976 (24000/1001) FPS
Color space : YUV
Chroma subsampling : 4:2:0
Bit depth : 8 bits
Scan type : Progressive
Bits/(Pixel*Frame) : 0.064
Stream size : 710 MiB (89%)
Writing library : x264 core 157 r2935 545de2f

Audio
ID : 2
Format : AAC LC
Codec ID : A_AAC-2
Duration : 1 h 35 min
Bit rate : 128 kb/s
Channel(s) : 2 channels
Channel layout : L R
Sampling rate : 48.0 kHz
Frame rate : 46.875 FPS (1024 SPF)
Compression mode : Lossy
Stream size : 88.0 MiB (11%)
Language : English
Default : Yes
Forced : No


Click To View Image










Sharing Widget


No Comments For This Torrent . Be The First to Comment

You must Login to Comment . Click Here to Login

Menu 1

Some content in menu 1.

The Final Wish 2018 720p WEB-DL x264 [MW] (Size: 799.8 MB)
  The Final Wish 2018 720p WEB-DL x264 [MW] 799.8 MB
tracker name
udp://tracker.leechers-paradise.org:6969/announce
udp://zer0day.ch:1337/announce
udp://open.demonii.com:1337/announce
udp://tracker.coppersurfer.tk:6969/announce
udp://exodus.desync.com:6969/announce
µTorrent compatible trackers list

Relative Torrents

Torrent Name Size Age SEED LEECH
I Am Oak 2017 Pictures Of The Floating Wrld (Live In Brussels)
Posted by    Morgaretor   in   Music
59.5 MB 6 minutes 936 138
Key4050 (Bryan Kearney & John O'callagha) - Tales From The Temple (2019) Mp3, 3
Posted by    Ash968   in   Music
343.0 MB 6 minutes 416 665
Destroyer 2019 DVDSCR x264 AAC [MW]
Posted by    moviezworldz   in   Movies
967.5 MB 15 minutes 782 875
Cage Warriors 101 720p WEB-DL H264 FightBB[TGx]
Posted by    mazemaze16   in   TV
4.4 GB 17 minutes 743 792
One Championship - Clash Of Legends 16-0-19 (720p) [TJET]
Posted by    EZZT   in   TV
5.3 GB 17 minutes 282 987