Robin Hood 2018 720p BluRay x264 [MW] Torrent Free Download

Seeders : 836   &   Leechers : 132      12-02-2019 (4 days)
Robin Hood 2018 720p BluRay x264 [MW] Torrent Download
Added: ago by moviezworldz ***** in Movies   1.1 GB   Hits : 13
Info Hash: AAF9ABBA3917929E0E6C268F4B8B9EAB3E193A78 Download
Robin Hood 2018 720p BluRay x264 [MW] Torrent Download

Anonymous and Direct Download movies , software , shows...

Fast Safe Anonymous
movies, software, shows...
Robin Hood
Action /Adventure /Drama /History /Romance  .   140 min   6.7/10
Director : Ridley Scott  
Tags: Robin  Hood  2018  720p  BluRay  x264  

Released:
14 May 2010
Birth of a legend. Following King Richard's death in France, archer Robin Longstride, along with Will Scarlett, Alan-a-Dale and Little John, returns to England. They encounter the dying Robert of Locksley, whose party was ambushed by treacherous Godfrey, who hopes .... See More to facilitate a French invasion of England. Robin promises the dying knight he will return his sword to his father Walter in Nottingham. Here Walter encourages him to impersonate the dead man to prevent his land being confiscated by the crown, and he finds himself with Marian, a ready-made wife. Hoping to stir baronial opposition to weak King John and allow an easy French take-over, Godfrey worms his way into the king's service as Earl Marshal of England and brutally invades towns under the pretext of collecting Royal taxes. Can Robin navigate the politics of barons, royals, traitors, and the French?

Torrent Description







General
Format : Matroska
Format version : Version 4
File size : 1.07 GiB
Duration : 1 h 56 min
Overall bit rate : 1 316 kb/s

Video
ID : 1
Format : AVC
Format/Info : Advanced Video Codec
Format profile : [email protected]
Format settings : CABAC / 4 Ref Frames
Format settings, CABAC : Yes
Format settings, RefFrames : 4 frames
Codec ID : V_MPEG4/ISO/AVC
Duration : 1 h 56 min
Bit rate : 1 200 kb/s
Width : 1 280 pixels
Height : 532 pixels
Display aspect ratio : 2.40:1
Frame rate mode : Constant
Frame rate : 23.976 (24000/1001) FPS
Color space : YUV
Chroma subsampling : 4:2:0
Bit depth : 8 bits
Scan type : Progressive
Bits/(Pixel*Frame) : 0.073
Stream size : 984 MiB (90%)
Writing library : x264 core 157 r2935 545de2f

Audio
ID : 2
Format : AAC LC
Codec ID : A_AAC-2
Duration : 1 h 56 min
Bit rate : 128 kb/s
Channel(s) : 2 channels
Channel layout : L R
Sampling rate : 48.0 kHz
Frame rate : 46.875 FPS (1024 SPF)
Compression mode : Lossy
Stream size : 107 MiB (10%)
Language : English
Default : Yes
Forced : No


Click To View Image










Sharing Widget


No Comments For This Torrent . Be The First to Comment

You must Login to Comment . Click Here to Login

Menu 1

Some content in menu 1.

Robin Hood 2018 720p BluRay x264 [MW] (Size: 1.1 GB)
  Robin Hood 2018 720p BluRay x264 [MW] 1.1 GB
tracker name
udp://tracker.leechers-paradise.org:6969/announce
udp://zer0day.ch:1337/announce
udp://open.demonii.com:1337/announce
udp://tracker.coppersurfer.tk:6969/announce
udp://exodus.desync.com:6969/announce
µTorrent compatible trackers list

Relative Torrents

Torrent Name Size Age SEED LEECH
Youve Been Framed S30E17 PDTV x264-PLUTOiUM[TGx]
Posted by    mazemaze16   in   TV
195.0 MB 2 minutes 327 227
13 Moments That Killed Whitney Houston 219 HDTV x264-PLUTONiUM[TGx]
Posted by    mazemaze16   in   TV
351.0 MB 2 minutes 636 404
MathWorks MATLAB R2018b v9 5 0 + Text Anlytics Toolbox Crack ~ [APKGOD]
Posted by    apkgod   in   Applications
14.7 GB 7 minutes 485 982
So You Said Yes (2015) [WEBRip] [720p] [TS] [YIFY]
Posted by    YTSAGx   in   Movies
727.4 MB 8 minutes 112 583
Ransom S03E01 720p WEB x265-MiNX[TGx]
Posted by    mazemaze16   in   TV
155.5 MB 12 minutes 968 399